vendredi 30 août 2013

Le sorcier 1995 VHS-Rip (suite du nom du père et du fils)

Description :Le sorcier 1995 VHS-Rip (suite du nom du père et du fils)
Recherche description complete.
Informations sur l'upload
Qualité :
 TvRiP
Format : XviD
Informations sur la Série
Nationalité de la Série : Québec
Langue : Fr/Qc
Genre : Drame
Durée : Environ 42 minutes par Episode
Episodes : 11 plus making of
Année : 1995
Format :avi xvid
Acteurs :
Acteurs : Geneviève Belec, Jocelyn Bérubé, Vincent Bilodeau, Éric Brisebois, Isabelle Brossard, Pierrôt Burke, Claudia Cardinale, Aline Caron, Pierre Chagnon, Claudia-Laurie Corbeil, Stéphan Côté, Nathalie Coupal, Colette Courtois, Aimée Delbast, Jean Deschênes, Julie Du Page, Hugo Dubé, Denise Filiatrault, Chantal Fontaine, Jérôme Fortin, Emile Genest, Roger Giguère, Mario Jean, Geneviève L'Allier-Matteau, Maxime Lagace, Armand Laroche, Diane Lavallée, Marcel Leboeuf, André Lejeune, Élia Martineau, Sylvie Moreau, Isabelle Ouimet, Dominique Pétin, Bertrand Raymond-Malo, Ken Roberts, Geneviève Rochette, Maxim Roy, Frank Schorpion, Yves Soutière, Diane St-Jacques, Mirella Tomassini, Marie-Josée Tremblay (acteur du nom du pere et fils - recherche acteur complet du sorcier)
Uploader : Culturelles

MediaInfo:
Complete name                  : Le sorcier 1-6\Le sorcier Episode 1.avi
Format                         : AVI
Format/Info                    : Audio Video Interleave
File size                      : 350 MiB
Duration                       : 43mn 54s
Overall bit rate               : 1 114 Kbps
Video
Format                         : MPEG-4 Visual
Format profile                 : Advanced Simple@L5
Format settings, BVOP          : Yes
Format settings, QPel          : No
Format settings, GMC           : No warppoints
Format settings, Matrix        : Default (H.263)
Codec ID                       : XVID
Codec ID/Hint                  : XviD
Duration                       : 43mn 54s
Bit rate                       : 975 Kbps
Width                          : 520 pixels
Height                         : 376 pixels
Display aspect ratio           : 1.383
Frame rate                     : 29.970 fps
Color space                    : YUV
Chroma subsampling             : 4:2:0
Bit depth                      : 8 bits
Scan type                      : Progressive
Compression mode               : Lossy
Bits/(Pixel*Frame)             : 0.166
Stream size                    : 306 MiB (87%)
Writing library                : XviD 1.2.1 (UTC 2008-12-04)

Audio
ID                             : 1
Format                         : MPEG Audio
Format version                 : Version 1
Format profile                 : Layer 3
Mode                           : Joint stereo
Mode extension                 : MS Stereo
Codec ID                       : 55
Codec ID/Hint                  : MP3
Duration                       : 43mn 54s
Bit rate mode                  : Constant
Bit rate                       : 128 Kbps
Channel(s)                     : 2 channels
Sampling rate                  : 48.0 KHz
Compression mode               : Lossy
Stream size                    : 40.2 MiB (11%)
Alignment                      : Aligned on interleaves
Interleave, duration           : 33 ms (1.00 video frame)
Interleave, preload duration   : 504 ms
Writing library                : LAME3.97
Encoding settings              : -m j -V 4 -q 2 -lowpass 17 -b 128

Sample:https://www.youtube.com/watch?v=KdY6wK9yufs

Aucun commentaire:

Enregistrer un commentaire