samedi 5 novembre 2011

Super 8 2011 FRENCH BRRiP

Origine du film : américain
Distributeur : Paramount Pictures France
Réalisateur : J.J. Abrams
Acteurs : Kyle Chandler, Joel Courtney, Elle Fanning,
Genre : Science fiction
Durée : 01h50 min
Date de sortie : 3 août 2011

Été 1979, une petite ville de l'Ohio. Alors qu'ils tournent un film en super 8, un groupe d'adolescents est témoin d'une spectaculaire catastrophe ferroviaire. Ils ne tardent pas à comprendre qu'il ne s'agit pas d'un accident. Peu après, des disparitions étonnantes et des événements inexplicables se produisent en ville, et la police tente de découvrir la vérité' Une vérité qu'aucun d'entre eux n'aurait pu imaginer.
Hébergeur : MegaUpload
Qualité : BRRiP
Format :
Langue : Français
Total du post : 700 Mo
Documents\Supe.avi
Format : AVI
Format/Info : Audio Video Interleave
File size : 703 MiB
Duration : 1h 51mn
Overall bit rate : 879 Kbps
Movie name : Super.8.2011.FRENCH.720p.BluRay.x264-NERDHD
Writing application : Lavf52.33.0

Video
ID : 0
Format : MPEG-4 Visual
Format profile : Simple@L3
Format settings, BVOP : No
Format settings, QPel : No
Format settings, GMC : No warppoints
Format settings, Matrix : Default (H.263)
Codec ID : XVID
Codec ID/Hint : XviD
Duration : 1h 51mn
Bit rate : 739 Kbps
Width : 720 pixels
Height : 304 pixels
Display aspect ratio : 2.35:1
Frame rate : 23.000 fps
Color space : YUV
Chroma subsampling : 4:2:0
Bit depth : 8 bits
Scan type : Progressive
Compression mode : Lossy
Bits/(Pixel*Frame) : 0.147
Stream size : 591 MiB (84%)
Writing library : XviD 1.2.1 (UTC 2008-12-04)

Audio
ID : 1
Format : MPEG Audio
Format version : Version 1
Format profile : Layer 3
Mode : Joint stereo
Mode extension : MS Stereo
Codec ID : 55
Codec ID/Hint : MP3
Duration : 1h 51mn
Bit rate mode : Constant
Bit rate : 128 Kbps
Channel(s) : 2 channels
Sampling rate : 48.0 KHz
Compression mode : Lossy
Stream size : 102 MiB (15%)
Alignment : Aligned on interleaves
Interleave, duration : 24 ms (0.55 video frame)
Interleave, preload duration : 24 ms
Writing library : LAME3.98.2


Télécharger ici

2 commentaires: